» » Column One - Electric Pleasure

Column One - Electric Pleasure mp3 download

Column One - Electric Pleasure mp3 download Performer: Column One
Album: Electric Pleasure
Country: Germany
Released: 2000
Style: IDM, Electro, Experimental
Size MP3: 1501 mb.
Size FLAC: 1533 mb.
Rating: 4.6/5
Votes: 856
Other Formats: AHX ASF MIDI MP1 VOC DXD MP3



13 One Stimme der Energie - index Electric Pleasure-part . lac. 03 Die Welt dreht sich im Kreis. 10 MZ4 - index Alpha Ville. 02 Don't move the iron feet-in time. 11 One Stimmen des Radios. 01 No limits to the imagination. 08 Im Zentrum der Zeit. Column One - Electronic Pleasure.

The Pleasure Principle is the debut solo studio album by English musician Gary Numan. Released about six months after Replicas (1979), the second album with his band Tubeway Army, The Pleasure Principle peaked at number 1 in the United Kingdom. The Pleasure Principle has been described as featuring synth-pop and new wave throughout. Numan completely abandoned electric guitar on the album.

Electronic Pleasure '2001. 1. (00:02:41) Column One - No limits to the imagination. 2. (00:04:58) Column One - Don't move the iron feet-in time. 3. (00:07:11) Column One - Die Welt dreht sich im Kreis. 4. (00:07:35) Column One - Electric Bones. 5. (00:07:43) Column One - Electric Voices. 6. (00:02:54) Column One - Nacht aus Stahl. 7. (00:02:56) Column One - Re-Start to Move. 8. (00:02:42) Column One - Im Zentrum der Zeit. 9. (00:05:02) Column One - Voice Test. COne - ElPleasure/13 One Stimme der Energie - index Electric Pleasure-part . lac - 6. COne - ElPleasure/01 No limits to the imagination. COne - ElPleasure/05 Electric Voices.

COLUMN ONE - ELECTRIC PLEASURE (excerpts 8 tracks). COLUMN ONE - ELECTRIC PLEASURE (excerpts 8 tracks). ROBERT SCHALINSKI plays the electric stuffed animal, column one - YouTube. Robert Schalinski - recorded live at SIBIRISCHE ZELLE 0.

cue Битрейт аудио: lossless Продолжительность: 1:13:52 Источник (релизер): личный CD Наличие сканов в содержимом раздачи: нет Треклист: 1 No Limits To The Imagination 2:46 2 Don't Move. 04 AUDIO TITLE "Electric Bones" PERFORMER "Column One" INDEX 01 00:00:00 FILE "05 Electric Voices. wav" WAVE TRACK 05 AUDIO TITLE "Electric Voices" PERFORMER "Column One" INDEX 01 00:00:00 FILE "06 Nacht aus Stahl. wav" WAVE TRACK 06 AUDIO TITLE "Nacht aus Stahl" PERFORMER "Column One" INDEX 01 00:00:00 FILE "07 Re-Start to Move.

Tracklist

1 No Limits To The Imagination 2:47
2 Don't Move The Iron-Feet In Time 4:59
3 Die Welt Dreht Sich Im Kreis 7:12
4 Electric Bones 7:37
5 Electric Voices 7:45
6 Nacht Aus Stahl 2:55
7 Re-Start To Move 2:57
8 Im Zentrum Der Zeit 2:43
9 Voice Test 5:11
10 MZ4 (Index.Alpha Ville) 8:06
11 Die Stimmen Des Radios 3:37
12 Receiver 6:18
13 Die Stimme Der Energie (Index.Electric Pleasure-P.6) 12:02

Other versions

Category Artist Title (Format) Label Category Country Year
WCD 001 Column One Electric Pleasure ‎(CD) 90% Wasser WCD 001 Germany 2001